A Face in the Crowd (1957) (1080p WEB-DL Torrent Free Download

Seeders : 923   &   Leechers : 684      10-07-2018 (5 months)
A Face in the Crowd (1957) (1080p WEB-DL Torrent Download
Added: ago by QxR ***** in Movies   3.7 GB   Hits : 44
Info Hash: 96C89804D21E2991DBBB2FDC3753849E3378FA69 Download
A Face in the Crowd (1957) (1080p WEB-DL Torrent Download

Anonymous and Direct Download movies , software , shows...

Fast Safe Anonymous
movies, software, shows...
A Face in the Crowd
Drama /Music  .   126 min   8.2/10
Director : Elia Kazan  
Tags: A  Face  in  the  Crowd  (1957)  

Released:
01 Jun 1957
"A Face in the Crowd" charts the rise of a raucous hayseed named Lonesome Rhodes from itinerant Ozark guitar picker to local media rabble-rouser to TV superstar and political king-maker. Marcia Jeffries is the innocent Sarah Lawrence girl who discovers the great ma.... See More n in a back-country jail and is the first to fall under his spell.

Torrent Description





Note from Encoder:

Encoded with 2-Pass at 4,000 kb/s





Media Information

Code:

General
Format : Matroska
Format version : Version 4 / Version 2
File size : 3.72 GiB
Duration : 2 h 5 min
Overall bit rate : 4 227 kb/s
Encoded date : UTC 2018-07-10 01:45:36
Writing application : mkvmerge v20.0.0 ('I Am The Sun') 64-bit
Writing library : libebml v1.3.5 + libmatroska v1.4.8
Cover : Yes
Attachments : cover.jpg
Writing frontend : StaxRip v1.7.0.6

Video
ID : 1
Format : HEVC
Format/Info : High Efficiency Video Coding
Format profile : Main [email protected]@Main
Codec ID : V_MPEGH/ISO/HEVC
Duration : 2 h 5 min
Bit rate : 4 000 kb/s
Width : 1 920 pixels
Height : 1 080 pixels
Display aspect ratio : 16:9
Frame rate mode : Constant
Frame rate : 23.976 (24000/1001) FPS
Color space : YUV
Chroma subsampling : 4:2:0
Bit depth : 10 bits
Bits/(Pixel*Frame) : 0.080
Stream size : 3.52 GiB (95%)
Writing library : x265 2.8+26-d65e3a557a20:[Windows][MSVC 1914][64 bit] 10bit
Encoding settings : cpuid=1111039 / frame-threads=2 / numa-pools=4 / wpp / no-pmode / no-pme / no-psnr / no-ssim / log-level=2 / input-csp=1 / input-res=1920x1080 / interlace=0 / total-frames=181156 / level-idc=0 / high-tier=1 / uhd-bd=0 / ref=4 / no-allow-non-conformance / no-repeat-headers / annexb / no-aud / no-hrd / info / hash=0 / no-temporal-layers / open-gop / min-keyint=23 / keyint=250 / gop-lookahead=0 / bframes=4 / b-adapt=2 / b-pyramid / bframe-bias=0 / rc-lookahead=25 / lookahead-slices=4 / scenecut=40 / radl=0 / no-intra-refresh / ctu=64 / min-cu-size=8 / no-rect / no-amp / max-tu-size=32 / tu-inter-depth=1 / tu-intra-depth=1 / limit-tu=0 / rdoq-level=2 / dynamic-rd=0.00 / no-ssim-rd / signhide / no-tskip / nr-intra=0 / nr-inter=0 / no-constrained-intra / no-strong-intra-smoothing / max-merge=3 / limit-refs=3 / limit-modes / me=3 / subme=3 / merange=57 / temporal-mvp / weightp / no-weightb / no-analyze-src-pics / deblock=0:0 / no-sao / no-sao-non-deblock / rd=4 / no-early-skip / no-rskip / no-fast-intra / no-tskip-fast / no-cu-lossless / no-b-intra / no-splitrd-skip / rdpenalty=0 / psy-rd=2.00 / psy-rdoq=1.00 / no-rd-refine / no-lossless / cbqpoffs=0 / crqpoffs=0 / rc=abr / bitrate=4000 / qcomp=0.60 / qpstep=4 / stats-write=0 / stats-read=2 / cplxblur=20.0 / qblur=0.5 / ipratio=1.40 / pbratio=1.30 / aq-mode=3 / aq-strength=1.00 / cutree / zone-count=0 / no-strict-cbr / qg-size=32 / no-rc-grain / qpmax=69 / qpmin=0 / no-const-vbv / sar=0 / overscan=0 / videoformat=5 / range=0 / colorprim=2 / transfer=2 / colormatrix=2 / chromaloc=0 / display-window=0 / max-cll=0,0 / min-luma=0 / max-luma=1023 / log2-max-poc-lsb=8 / vui-timing-info / vui-hrd-info / slices=1 / no-opt-qp-pps / no-opt-ref-list-length-pps / no-multi-pass-opt-rps / scenecut-bias=0.05 / no-opt-cu-delta-qp / no-aq-motion / no-hdr / no-hdr-opt / no-dhdr10-opt / no-idr-recovery-sei / analysis-reuse-level=5 / scale-factor=0 / refine-intra=0 / refine-inter=0 / refine-mv=0 / no-limit-sao / ctu-info=0 / no-lowpass-dct / refine-mv-type=0 / copy-pic=1 / max-ausize-factor=1.0 / no-dynamic-refine / no-single-sei
Default : Yes
Forced : No

Audio
ID : 2
Format : E-AC-3
Format/Info : Enhanced Audio Coding 3
Format settings, Endianness : Big
Codec ID : A_EAC3
Duration : 2 h 5 min
Bit rate mode : Constant
Bit rate : 224 kb/s
Channel(s) : 2 channels
Channel positions : Front: L R
Sampling rate : 48.0 kHz
Frame rate : 187.500 FPS (256 spf)
Compression mode : Lossy
Stream size : 202 MiB (5%)
Language : English
Default : No
Forced : No

Subtitle #1
ID : 3
Format : UTF-8
Codec ID : S_TEXT/UTF8
Codec ID/Info : UTF-8 Plain Text
Duration : 2 h 4 min
Bit rate : 81 b/s
Count of elements : 1734
Stream size : 74.0 KiB (0%)
Language : English
Default : No
Forced : No

Subtitle #2
ID : 4
Format : UTF-8
Codec ID : S_TEXT/UTF8
Codec ID/Info : UTF-8 Plain Text
Duration : 2 h 5 min
Bit rate : 84 b/s
Count of elements : 2276
Stream size : 77.4 KiB (0%)
Language : English
Default : No
Forced : No

Menu
00:00:00.000 : en:01. Credits
00:01:25.319 : en:02. A Face in the Crowd
00:03:58.472 : en:03. Lonesome Rhodes
00:09:43.817 : en:04. One-Day Trial Offer
00:13:01.549 : en:05. Housewives' Heartthrob
00:16:38.766 : en:06. To the Dogs
00:21:27.221 : en:07. Getting the Idea
00:26:13.140 : en:08. TV Debut
00:30:57.925 : en:09. Potent Pitchman
00:35:06.841 : en:10. His Own Man
00:37:48.870 : en:11. In Marcia's Door
00:39:56.465 : en:12. In Vitajex's Door
00:44:03.379 : en:13. Moving Merchandise
00:51:04.667 : en:14. Mass Persuasion
00:56:01.598 : en:15. Don't Hurt Me
01:00:16.353 : en:16. Mrs. Rhodes
01:04:01.745 : en:17. Deeply Involved
01:08:36.519 : en:18. Betty Lou Fleckum
01:14:58.735 : en:19. Another Bride
01:19:14.859 : en:20. Heart Problems
01:22:56.048 : en:21. Marcia's Cut
01:26:11.911 : en:22. Coaching Sen. Fuller
01:33:02.188 : en:23. I'm a Force
01:34:31.445 : en:24. The Book on Lonesome
01:40:02.409 : en:25. In Bed With Joey
01:42:36.063 : en:26. My Flock of Sheep
01:47:30.023 : en:27. The Whole Show
01:50:45.920 : en:28. Grabbing Control
01:53:16.203 : en:29. All the Way Down
01:55:09.817 : en:30. Get Out of Everybody's Life
01:58:41.362 : en:31. Face to Face
02:02:38.632 : en:32. Whatever Happened to Him?

Source Information

Code:

Release:
A.Face.in.the.Crowd.1957.1080p.WEB-DL.DD+2.0.H.264-SbR.mkv (13.15 GBs)


Note From QxR:

Quote:

Whilst we are happy for our releases to be re-posted on a platform we aren't on, please do so in an 'as-is' format. We ask that you do not create a new torrent, include all descriptions you see above including the QxR logo, tags, notes and screenshots. If you'd like to become a permanent poster on a website we don't post to, feel free to get in contact with a QxR member.





Sharing Widget


No Comments For This Torrent . Be The First to Comment

You must Login to Comment . Click Here to Login

Menu 1

Some content in menu 1.

A Face in the Crowd (1957) (1080p WEB-DL x265 HEVC 10bit EAC3 2 0 r00t (Size: 3.7 GB)
  A Face in the Crowd (1957) (1080p WEB-DL x265 HEVC 10bit EAC3 2 0 r00t 3.7 GB
tracker name
udp://tracker.leechers-paradise.org:6969/announce
udp://zer0day.ch:1337/announce
udp://open.demonii.com:1337/announce
udp://tracker.coppersurfer.tk:6969/announce
udp://exodus.desync.com:6969/announce
µTorrent compatible trackers list

Relative Torrents

Torrent Name Size Age SEED LEECH
Wisin & Yandel - Los Campeones del Puebl "The Big Leagues" (2018)
Posted by    Freak37   in   Music
122.0 MB 1 minute 258 859
Directory Lister Pro 2 33 (x64) Enterprie Multilingual
Posted by    Rain   in   Applications
16.1 MB 4 minutes 784 786
WinZip System Utilities Suite 3 6 0 20 Mltilingual
Posted by    Rain   in   Applications
63.5 MB 4 minutes 265 900
Bigg Boss 12 (2018) Hindi - EP91 (DEC 16 - 720p - HDTV - x264 - 500MB - AAC - M
Posted by    MovCr   in   Movies
592.5 MB 4 minutes 566 711
Wisin & Yandel - Los Campeones del Puebl "The Big Leagues" (2018) 320 KBPS
Posted by    Freak37   in   Music
122.0 MB 7 minutes 696 557