Ash vs Evil Dead (2015) Season 1 S01 + E Torrent Free Download

Seeders : 405   &   Leechers : 962      11-07-2018 (5 months)
Ash vs Evil Dead (2015) Season 1 S01 + E Torrent Download
Added: ago by QxR ***** in TV   11.1 GB   Hits : 39
Info Hash: 2BFD1D82C8A59336AEBEDDBF7D4907B6D90B1F05 Download
Ash vs Evil Dead (2015) Season 1 S01 + E Torrent Download

Anonymous and Direct Download movies , software , shows...

Fast Safe Anonymous
movies, software, shows...
Ash vs Evil Dead
Action /Comedy /Fantasy /Horror  .   30 min   8.5/10
Director : N/A  
Writer: Ivan Raimi  Sam Raimi  Tom Spezialy  
Tags: Ash  vs  Evil  Dead  (2015)  Season  

Released:
31 Oct 2015
Thirty years after the events of Evil Dead, Ash is a loner, living a dull existence, still not able to come to grips with the events that started at the cabin. In the event of a Deadite invasion Ash must attach his chainsaw and pick up his trusty boomstick one more.... See More time, all while finally coming to terms with his past.

Torrent Description







Media Information

Code:

General
Format : Matroska
Format version : Version 4 / Version 2
File size : 1.47 GiB
Duration : 40 min 46 s
Overall bit rate : 5 170 kb/s
Movie name : Ash vs Evil Dead - The Complete First Season Disc 1
Encoded date : UTC 2018-07-01 09:15:13
Writing application : mkvmerge v24.0.0 ('Beyond The Pale') 64-bit
Writing library : libebml v1.3.6 + libmatroska v1.4.9

Video
ID : 1
Format : HEVC
Format/Info : High Efficiency Video Coding
Format profile : Main [email protected]@Main
Codec ID : V_MPEGH/ISO/HEVC
Duration : 40 min 46 s
Bit rate : 4 180 kb/s
Width : 1 920 pixels
Height : 1 080 pixels
Display aspect ratio : 16:9
Frame rate mode : Constant
Frame rate : 23.976 (24000/1001) FPS
Color space : YUV
Chroma subsampling : 4:2:0
Bit depth : 10 bits
Bits/(Pixel*Frame) : 0.084
Stream size : 1.19 GiB (81%)
Writing library : x265 2.8+23-656b5b442f0b:[Windows][GCC 8.1.0][64 bit] 10bit
Encoding settings : cpuid=1111039 / frame-threads=3 / numa-pools=12 / wpp / no-pmode / no-pme / no-psnr / no-ssim / log-level=2 / input-csp=1 / input-res=1920x1080 / interlace=0 / total-frames=58657 / level-idc=0 / high-tier=1 / uhd-bd=0 / ref=4 / no-allow-non-conformance / no-repeat-headers / annexb / no-aud / no-hrd / info / hash=0 / no-temporal-layers / open-gop / min-keyint=23 / keyint=250 / gop-lookahead=0 / bframes=8 / b-adapt=2 / b-pyramid / bframe-bias=0 / rc-lookahead=80 / lookahead-slices=4 / scenecut=40 / radl=0 / no-intra-refresh / ctu=64 / min-cu-size=8 / no-rect / no-amp / max-tu-size=32 / tu-inter-depth=1 / tu-intra-depth=1 / limit-tu=0 / rdoq-level=2 / dynamic-rd=0.00 / no-ssim-rd / signhide / no-tskip / nr-intra=0 / nr-inter=0 / no-constrained-intra / strong-intra-smoothing / max-merge=3 / limit-refs=3 / limit-modes / me=3 / subme=5 / merange=57 / temporal-mvp / weightp / weightb / no-analyze-src-pics / deblock=-1:-1 / sao / no-sao-non-deblock / rd=4 / no-early-skip / rskip / no-fast-intra / no-tskip-fast / no-cu-lossless / no-b-intra / no-splitrd-skip / rdpenalty=0 / psy-rd=1.65 / psy-rdoq=1.00 / no-rd-refine / no-lossless / cbqpoffs=0 / crqpoffs=0 / rc=crf / crf=20.0 / qcomp=0.60 / qpstep=4 / stats-write=0 / stats-read=0 / ipratio=1.40 / pbratio=1.30 / aq-mode=3 / aq-strength=1.00 / cutree / zone-count=0 / no-strict-cbr / qg-size=32 / no-rc-grain / qpmax=69 / qpmin=0 / no-const-vbv / sar=0 / overscan=0 / videoformat=5 / range=0 / colorprim=2 / transfer=2 / colormatrix=2 / chromaloc=0 / display-window=0 / max-cll=0,0 / min-luma=0 / max-luma=1023 / log2-max-poc-lsb=8 / vui-timing-info / vui-hrd-info / slices=1 / no-opt-qp-pps / no-opt-ref-list-length-pps / no-multi-pass-opt-rps / scenecut-bias=0.00 / no-opt-cu-delta-qp / aq-motion / no-hdr / no-hdr-opt / no-dhdr10-opt / no-idr-recovery-sei / analysis-reuse-level=5 / scale-factor=0 / refine-intra=0 / refine-inter=0 / refine-mv=0 / no-limit-sao / ctu-info=0 / no-lowpass-dct / refine-mv-type=0 / copy-pic=1 / max-ausize-factor=1.0 / no-dynamic-refine / no-single-sei
Default : Yes
Forced : No

Audio #1
ID : 2
Format : AAC
Format/Info : Advanced Audio Codec
Format profile : LC
Codec ID : A_AAC
Duration : 40 min 45 s
Bit rate : 615 kb/s
Channel(s) : 8 channels
Channel positions : Front: L C R, Side: 4, LFE
Sampling rate : 48.0 kHz
Frame rate : 46.875 FPS (1024 spf)
Compression mode : Lossy
Stream size : 179 MiB (12%)
Language : English
Default : No
Forced : No

Audio #2
ID : 3
Format : AAC
Format/Info : Advanced Audio Codec
Format profile : HE-AAC / LC
Codec ID : A_AAC
Duration : 40 min 45 s
Bit rate : 192 kb/s
Channel(s) : 6 channels
Channel positions : Front: L C R, Side: L R, LFE
Sampling rate : 48.0 kHz / 24.0 kHz
Frame rate : 23.438 FPS (1024 spf)
Compression mode : Lossy
Stream size : 56.0 MiB (4%)
Language : French
Default : No
Forced : No

Audio #3
ID : 4
Format : AAC
Format/Info : Advanced Audio Codec
Format profile : HE-AAC / LC
Codec ID : A_AAC
Duration : 40 min 45 s
Bit rate : 80.0 kb/s
Channel(s) : 2 channels
Channel positions : Front: L R
Sampling rate : 48.0 kHz / 24.0 kHz
Frame rate : 23.438 FPS (1024 spf)
Compression mode : Lossy
Stream size : 23.3 MiB (2%)
Language : Spanish
Default : No
Forced : No

Audio #4
ID : 5
Format : AAC
Format/Info : Advanced Audio Codec
Format profile : HE-AAC / LC
Codec ID : A_AAC
Duration : 40 min 45 s
Bit rate : 80.0 kb/s
Channel(s) : 2 channels
Channel positions : Front: L R
Sampling rate : 48.0 kHz / 24.0 kHz
Frame rate : 23.438 FPS (1024 spf)
Compression mode : Lossy
Stream size : 23.3 MiB (2%)
Title : Commentary with Sam Raimi, Ivan Raimi, Bob Tapert & Bruce Campbell
Language : English
Default : No
Forced : No

Subtitle #1
ID : 6
Format : PGS
Muxing mode : zlib
Codec ID : S_HDMV/PGS
Codec ID/Info : Picture based subtitle format used on BDs/HD-DVDs
Duration : 40 min 16 s
Bit rate : 39.6 kb/s
Count of elements : 1236
Stream size : 11.4 MiB (1%)
Language : English
Default : No
Forced : No

Subtitle #2
ID : 7
Format : PGS
Muxing mode : zlib
Codec ID : S_HDMV/PGS
Codec ID/Info : Picture based subtitle format used on BDs/HD-DVDs
Duration : 38 min 47 s
Bit rate : 29.2 kb/s
Count of elements : 724
Stream size : 8.10 MiB (1%)
Language : Spanish
Default : No
Forced : No

Menu
00:00:00.000 : en:Chapter 01
00:13:22.301 : en:Chapter 02
00:20:06.872 : en:Chapter 03
00:29:51.623 : en:Chapter 04
00:39:08.679 : en:Chapter 05
00:40:45.443 : en:Chapter 06

Source Information

Code:

Release:
Untouched Bluray


Note From QxR:

Quote:

Whilst we are happy for our releases to be re-posted on a platform we aren't on, please do so in an 'as-is' format. We ask that you do not create a new torrent, include all descriptions you see above including the QxR logo, tags, notes and screenshots. If you'd like to become a permanent poster on a website we don't post to, feel free to get in contact with a QxR member.





Sharing Widget


No Comments For This Torrent . Be The First to Comment

You must Login to Comment . Click Here to Login

Menu 1

Some content in menu 1.

Ash vs Evil Dead (2015) Season 1 S01 + Extras (1080p BluRay x265 HEVC (Size: 11.1 GB)
  Ash vs Evil Dead (2015) Season 1 S01 + Extras (1080p BluRay x265 HEVC 11.1 GB
tracker name
udp://tracker.leechers-paradise.org:6969/announce
udp://zer0day.ch:1337/announce
udp://open.demonii.com:1337/announce
udp://tracker.coppersurfer.tk:6969/announce
udp://exodus.desync.com:6969/announce
µTorrent compatible trackers list

Relative Torrents

Torrent Name Size Age SEED LEECH
God Bless The Broken Road 2018 720p BluRy x264-CiNEFiLE
Posted by    Trige   in   Movies
4.4 GB 3 minutes 727 589
The Pioneer Woman S21E00 Best of ComfortClassics HDTV x264-W4F
Posted by    Trige   in   TV
177.4 MB 6 minutes 474 266
Sabrina 2018 WEBRip X264-INFLATE[TGx]
Posted by    mazemaze16   in   Movies
682.3 MB 12 minutes 465 257
God Bless The Broken Road 2018 720p BluRy x264-CiNEFiLE[EtHD]
Posted by    EtHD   in   Movies
4.4 GB 12 minutes 20 956
Sabrina 2018 1080p WEBRip X264-INFLATE
Posted by    Trige   in   Movies
3.7 GB 12 minutes 528 869