Kung Fu Panda Legends of Awesomeness (20 Torrent Free Download

Seeders : 11   &   Leechers : 531      10-07-2018 (1 week)
Kung Fu Panda Legends of Awesomeness (20 Torrent Download
Added: ago by QxR ***** in TV   23.7 GB   Hits : 22
Info Hash: 495330058F860EB7CFFD395EEFBE43DB2DCFDD3C Download
Kung Fu Panda Legends of Awesomeness (20 Torrent Download

Anonymous and Direct Download movies , software , shows...

Fast Safe Anonymous
movies, software, shows...
Kung Fu Panda: Legends of Awesomeness
Animation /Action /Adventure  .   22 min   7.2/10
Director : N/A  
Writer: N/A  
Tags: Kung  Fu  Panda  Legends  of  Awesomeness  

Released:
19 Sep 2011
Kung Fu Panda: Legends of Awesomeness tells the continuing adventures of Po as he trains, protects, fights, teaches, learns, stumbles, talks too much, and geeks out as the newest hero in the Valley of Peace. Now living in the barracks with the Furious Five, Po will.... See More have to take on his many new responsibilities, his many new adversaries, and his many old pounds in the continuing adventures of the Dragon Warrior. And kick some serious boo-tay.

Torrent Description





Note From The Encoder:

Fixed Episode Order & Added Missing Episode.

image ru



Media Information

Code:

General
Format : Matroska
Format version : Version 4 / Version 2
File size : 341 MiB
Duration : 23 min 56 s
Overall bit rate : 1 992 kb/s
Encoded date : UTC 2018-02-07 04:08:17
Writing application : mkvmerge v12.0.0 ('Trust / Lust') 64bit
Writing library : libebml v1.3.4 + libmatroska v1.4.5
Cover : Yes
Attachments : cover.jpg

Video
ID : 1
Format : HEVC
Format/Info : High Efficiency Video Coding
Format profile : Main [email protected]@Main
Codec ID : V_MPEGH/ISO/HEVC
Duration : 23 min 56 s
Bit rate : 1 349 kb/s
Width : 1 920 pixels
Height : 1 080 pixels
Display aspect ratio : 16:9
Frame rate mode : Constant
Frame rate : 23.976 (24000/1001) FPS
Color space : YUV
Chroma subsampling : 4:2:0
Bit depth : 10 bits
Bits/(Pixel*Frame) : 0.027
Stream size : 231 MiB (68%)
Writing library : x265 2.6+32-b763c22920f6:[Windows][MSVC 1900][64 bit] 10bit
Encoding settings : cpuid=1173503 / frame-threads=3 / numa-pools=8 / wpp / no-pmode / no-pme / no-psnr / no-ssim / log-level=2 / input-csp=1 / input-res=1920x1080 / interlace=0 / total-frames=34438 / level-idc=0 / high-tier=1 / uhd-bd=0 / ref=4 / no-allow-non-conformance / no-repeat-headers / annexb / no-aud / no-hrd / info / hash=0 / no-temporal-layers / open-gop / min-keyint=23 / keyint=250 / gop-lookahead=0 / bframes=4 / b-adapt=2 / b-pyramid / bframe-bias=0 / rc-lookahead=80 / lookahead-slices=4 / scenecut=40 / radl=0 / no-intra-refresh / ctu=64 / min-cu-size=8 / rect / no-amp / max-tu-size=32 / tu-inter-depth=1 / tu-intra-depth=1 / limit-tu=0 / rdoq-level=1 / dynamic-rd=0.00 / no-ssim-rd / signhide / no-tskip / nr-intra=0 / nr-inter=0 / no-constrained-intra / no-strong-intra-smoothing / max-merge=3 / limit-refs=3 / limit-modes / me=3 / subme=3 / merange=57 / temporal-mvp / weightp / no-weightb / no-analyze-src-pics / deblock=-1:-1 / no-sao / no-sao-non-deblock / rd=4 / no-early-skip / rskip / no-fast-intra / no-tskip-fast / no-cu-lossless / no-b-intra / no-splitrd-skip / rdpenalty=0 / psy-rd=0.50 / psy-rdoq=1.00 / no-rd-refine / no-lossless / cbqpoffs=0 / crqpoffs=0 / rc=abr / bitrate=1350 / qcomp=0.60 / qpstep=4 / stats-write=0 / stats-read=2 / cplxblur=20.0 / qblur=0.5 / ipratio=1.40 / pbratio=1.30 / aq-mode=2 / aq-strength=0.55 / cutree / zone-count=0 / no-strict-cbr / qg-size=32 / no-rc-grain / qpmax=69 / qpmin=0 / no-const-vbv / sar=0 / overscan=0 / videoformat=5 / range=0 / colorprim=2 / transfer=2 / colormatrix=2 / chromaloc=0 / display-window=0 / max-cll=0,0 / min-luma=0 / max-luma=1023 / log2-max-poc-lsb=8 / vui-timing-info / vui-hrd-info / slices=1 / no-opt-qp-pps / no-opt-ref-list-length-pps / no-multi-pass-opt-rps / scenecut-bias=0.05 / no-opt-cu-delta-qp / no-aq-motion / no-hdr / no-hdr-opt / no-dhdr10-opt / analysis-reuse-level=5 / scale-factor=0 / refine-intra=0 / refine-inter=0 / refine-mv=0 / no-limit-sao / ctu-info=0 / no-lowpass-dct / refine-mv-type=0 / copy-pic=1
Default : Yes
Forced : No

Audio
ID : 2
Format : E-AC-3
Format/Info : Enhanced Audio Coding 3
Format settings, Endianness : Big
Codec ID : A_EAC3
Duration : 23 min 56 s
Bit rate mode : Constant
Bit rate : 640 kb/s
Channel(s) : 6 channels
Channel positions : Front: L C R, Side: L R, LFE
Sampling rate : 48.0 kHz
Frame rate : 187.500 FPS (256 spf)
Compression mode : Lossy
Stream size : 110 MiB (32%)
Language : English
Default : No
Forced : No

Subtitle
ID : 3
Format : UTF-8
Codec ID : S_TEXT/UTF8
Codec ID/Info : UTF-8 Plain Text
Duration : 23 min 0 s
Bit rate : 71 b/s
Count of elements : 596
Stream size : 12.0 KiB (0%)
Language : English
Default : No
Forced : No

Source Information

Code:

Release:
Kung Fu Panda: Legends of Awesomeness S01-S03 COMPLETE REPACK 1080p AMZN WEB-DL DD+ 5.1 H.264-SiGMA (Thanks!)


Note From QxR:

Quote:

Whilst we are happy for our releases to be re-posted on a platform we aren't on, please do so in an 'as-is' format. We ask that you do not create a new torrent, include all descriptions you see above including the QxR logo, tags, notes and screenshots. If you'd like to become a permanent poster on a website we don't post to, feel free to get in contact with a QxR member.





Sharing Widget


No Comments For This Torrent . Be The First to Comment

You must Login to Comment . Click Here to Login

Menu 1

Some content in menu 1.

Kung Fu Panda Legends of Awesomeness (2011) Season 1-3 S01-S03 (1080p (Size: 23.7 GB)
  Kung Fu Panda Legends of Awesomeness (2011) Season 1-3 S01-S03 (1080p 23.7 GB
tracker name
udp://tracker.leechers-paradise.org:6969/announce
udp://zer0day.ch:1337/announce
udp://open.demonii.com:1337/announce
udp://tracker.coppersurfer.tk:6969/announce
udp://exodus.desync.com:6969/announce
µTorrent compatible trackers list

Relative Torrents

Torrent Name Size Age SEED LEECH
H4610-ki160903
Posted by    iDope   in   Video
1.0 GB 3 minutes 781 790
QM, Webster B, Odee - 층간소음
Posted by    iDope   in   Music
8.1 MB 3 minutes 805 162
Up All Night 1x06 HDTV Xvid Mp3 [SBT] av
Posted by    iDope   in   Video
175.0 MB 3 minutes 632 150
Drona
Posted by    iDope   in   Video
3.7 GB 3 minutes 193 949
[K-Zone] Keys to the Heart 2018 FHD KITE VN mkv
Posted by    iDope   in   Video
2.7 GB 3 minutes 211 381