Penny Dreadful (2014) Season 2 S02 + Ext Torrent Free Download

Seeders : 447   &   Leechers : 123      10-07-2018 (1 week)
Penny Dreadful (2014) Season 2 S02 + Ext Torrent Download
Added: ago by QxR ***** in TV   15.9 GB   Hits : 27
Info Hash: D81A77C746E9DB9B3D142D8923589E6DCCACD590 Download
Penny Dreadful (2014) Season 2 S02 + Ext Torrent Download

Anonymous and Direct Download movies , software , shows...

Fast Safe Anonymous
movies, software, shows...
Penny Dreadful
Drama /Fantasy /Horror  .   60 min   8.2/10
Director : N/A  
Writer: John Logan  
Tags: Penny  Dreadful  (2014)  Season  2  S02  

Released:
28 Apr 2014
Explorer Sir Malcolm Murray, American gunslinger Ethan Chandler, scientist Victor Frankenstein, and medium Vanessa Ives unite to combat supernatural threats in Victorian London.

Torrent Description







Media Information

Code:

General
Format : Matroska
Format version : Version 4 / Version 2
File size : 2.17 GiB
Duration : 58 min 18 s
Overall bit rate : 5 335 kb/s
Movie name : Penny Dreadful Season 2 Disc 1
Encoded date : UTC 2018-07-01 15:26:48
Writing application : mkvmerge v24.0.0 ('Beyond The Pale') 64-bit
Writing library : libebml v1.3.6 + libmatroska v1.4.9

Video
ID : 1
Format : HEVC
Format/Info : High Efficiency Video Coding
Format profile : Main [email protected]@Main
Codec ID : V_MPEGH/ISO/HEVC
Duration : 58 min 18 s
Bit rate : 4 454 kb/s
Width : 1 920 pixels
Height : 1 080 pixels
Display aspect ratio : 16:9
Frame rate mode : Constant
Frame rate : 23.976 (24000/1001) FPS
Color space : YUV
Chroma subsampling : 4:2:0
Bit depth : 10 bits
Bits/(Pixel*Frame) : 0.090
Stream size : 1.81 GiB (83%)
Writing library : x265 2.8+23-656b5b442f0b:[Windows][GCC 8.1.0][64 bit] 10bit
Encoding settings : cpuid=1111039 / frame-threads=3 / numa-pools=12 / wpp / no-pmode / no-pme / no-psnr / no-ssim / log-level=2 / input-csp=1 / input-res=1920x1080 / interlace=0 / total-frames=83874 / level-idc=0 / high-tier=1 / uhd-bd=0 / ref=4 / no-allow-non-conformance / no-repeat-headers / annexb / no-aud / no-hrd / info / hash=0 / no-temporal-layers / open-gop / min-keyint=23 / keyint=250 / gop-lookahead=0 / bframes=8 / b-adapt=2 / b-pyramid / bframe-bias=0 / rc-lookahead=80 / lookahead-slices=4 / scenecut=40 / radl=0 / no-intra-refresh / ctu=64 / min-cu-size=8 / no-rect / no-amp / max-tu-size=32 / tu-inter-depth=1 / tu-intra-depth=1 / limit-tu=0 / rdoq-level=2 / dynamic-rd=0.00 / no-ssim-rd / signhide / no-tskip / nr-intra=0 / nr-inter=0 / no-constrained-intra / strong-intra-smoothing / max-merge=3 / limit-refs=3 / limit-modes / me=3 / subme=5 / merange=57 / temporal-mvp / weightp / weightb / no-analyze-src-pics / deblock=-1:-1 / sao / no-sao-non-deblock / rd=4 / no-early-skip / rskip / no-fast-intra / no-tskip-fast / no-cu-lossless / no-b-intra / no-splitrd-skip / rdpenalty=0 / psy-rd=1.60 / psy-rdoq=1.00 / no-rd-refine / no-lossless / cbqpoffs=0 / crqpoffs=0 / rc=crf / crf=19.0 / qcomp=0.60 / qpstep=4 / stats-write=0 / stats-read=0 / ipratio=1.40 / pbratio=1.30 / aq-mode=3 / aq-strength=1.00 / cutree / zone-count=0 / no-strict-cbr / qg-size=32 / no-rc-grain / qpmax=69 / qpmin=0 / no-const-vbv / sar=0 / overscan=0 / videoformat=5 / range=0 / colorprim=2 / transfer=2 / colormatrix=2 / chromaloc=0 / display-window=0 / max-cll=0,0 / min-luma=0 / max-luma=1023 / log2-max-poc-lsb=8 / vui-timing-info / vui-hrd-info / slices=1 / no-opt-qp-pps / no-opt-ref-list-length-pps / no-multi-pass-opt-rps / scenecut-bias=0.00 / no-opt-cu-delta-qp / aq-motion / no-hdr / no-hdr-opt / no-dhdr10-opt / no-idr-recovery-sei / analysis-reuse-level=5 / scale-factor=0 / refine-intra=0 / refine-inter=0 / refine-mv=0 / no-limit-sao / ctu-info=0 / no-lowpass-dct / refine-mv-type=0 / copy-pic=1 / max-ausize-factor=1.0 / no-dynamic-refine / no-single-sei
Default : Yes
Forced : No

Audio #1
ID : 2
Format : AAC
Format/Info : Advanced Audio Codec
Format profile : LC
Codec ID : A_AAC
Duration : 58 min 18 s
Bit rate : 422 kb/s
Channel(s) : 6 channels
Channel positions : Front: L C R, Side: L R, LFE
Sampling rate : 48.0 kHz
Frame rate : 46.875 FPS (1024 spf)
Compression mode : Lossy
Delay relative to video : 20 ms
Stream size : 176 MiB (8%)
Language : English
Default : No
Forced : No

Audio #2
ID : 3
Format : AAC
Format/Info : Advanced Audio Codec
Format profile : HE-AAC / LC
Codec ID : A_AAC
Duration : 58 min 18 s
Bit rate : 192 kb/s
Channel(s) : 6 channels
Channel positions : Front: L C R, Side: L R, LFE
Sampling rate : 48.0 kHz / 24.0 kHz
Frame rate : 23.438 FPS (1024 spf)
Compression mode : Lossy
Delay relative to video : 40 ms
Stream size : 80.1 MiB (4%)
Language : French
Default : No
Forced : No

Audio #3
ID : 4
Format : AAC
Format/Info : Advanced Audio Codec
Format profile : HE-AAC / LC
Codec ID : A_AAC
Duration : 58 min 18 s
Bit rate : 192 kb/s
Channel(s) : 6 channels
Channel positions : Front: L C R, Side: L R, LFE
Sampling rate : 48.0 kHz / 24.0 kHz
Frame rate : 23.438 FPS (1024 spf)
Compression mode : Lossy
Delay relative to video : 40 ms
Stream size : 80.1 MiB (4%)
Language : German
Default : No
Forced : No

Subtitle #1
ID : 5
Format : PGS
Muxing mode : zlib
Codec ID : S_HDMV/PGS
Codec ID/Info : Picture based subtitle format used on BDs/HD-DVDs
Duration : 57 min 5 s
Bit rate : 30.8 kb/s
Count of elements : 1394
Stream size : 12.6 MiB (1%)
Language : English
Default : No
Forced : No

Subtitle #2
ID : 6
Format : PGS
Muxing mode : zlib
Codec ID : S_HDMV/PGS
Codec ID/Info : Picture based subtitle format used on BDs/HD-DVDs
Duration : 57 min 5 s
Bit rate : 31.9 kb/s
Count of elements : 1350
Stream size : 13.0 MiB (1%)
Language : Danish
Default : No
Forced : No

Subtitle #3
ID : 7
Format : PGS
Muxing mode : zlib
Codec ID : S_HDMV/PGS
Codec ID/Info : Picture based subtitle format used on BDs/HD-DVDs
Duration : 57 min 5 s
Bit rate : 34.0 kb/s
Count of elements : 1350
Stream size : 13.9 MiB (1%)
Language : Dutch
Default : No
Forced : No

Subtitle #4
ID : 8
Format : PGS
Muxing mode : zlib
Codec ID : S_HDMV/PGS
Codec ID/Info : Picture based subtitle format used on BDs/HD-DVDs
Duration : 57 min 5 s
Bit rate : 37.4 kb/s
Count of elements : 1392
Stream size : 15.3 MiB (1%)
Language : French
Default : No
Forced : No

Subtitle #5
ID : 9
Format : PGS
Muxing mode : zlib
Codec ID : S_HDMV/PGS
Codec ID/Info : Picture based subtitle format used on BDs/HD-DVDs
Duration : 57 min 5 s
Bit rate : 31.7 kb/s
Count of elements : 1348
Stream size : 13.0 MiB (1%)
Language : Finnish
Default : No
Forced : No

Subtitle #6
ID : 10
Format : PGS
Muxing mode : zlib
Codec ID : S_HDMV/PGS
Codec ID/Info : Picture based subtitle format used on BDs/HD-DVDs
Duration : 57 min 5 s
Bit rate : 39.5 kb/s
Count of elements : 1380
Stream size : 16.1 MiB (1%)
Language : German
Default : No
Forced : No

Subtitle #7
ID : 11
Format : PGS
Muxing mode : zlib
Codec ID : S_HDMV/PGS
Codec ID/Info : Picture based subtitle format used on BDs/HD-DVDs
Duration : 57 min 5 s
Bit rate : 29.7 kb/s
Count of elements : 1254
Stream size : 12.1 MiB (1%)
Language : Norwegian Bokmal
Default : No
Forced : No

Subtitle #8
ID : 12
Format : PGS
Muxing mode : zlib
Codec ID : S_HDMV/PGS
Codec ID/Info : Picture based subtitle format used on BDs/HD-DVDs
Duration : 57 min 5 s
Bit rate : 31.4 kb/s
Count of elements : 1346
Stream size : 12.8 MiB (1%)
Language : Swedish
Default : No
Forced : No

Menu
00:00:00.000 : en:Chapter 01
00:02:24.644 : en:Chapter 02
00:15:21.420 : en:Chapter 03
00:31:52.827 : en:Chapter 04
00:44:23.077 : en:Chapter 05
00:57:17.142 : en:Chapter 06

Source Information

Code:

Release:
Penny.Dreadful.S02.MULTi.COMPLETE.BLURAY-AiRFORCE


Note From QxR:

Quote:

Whilst we are happy for our releases to be re-posted on a platform we aren't on, please do so in an 'as-is' format. We ask that you do not create a new torrent, include all descriptions you see above including the QxR logo, tags, notes and screenshots. If you'd like to become a permanent poster on a website we don't post to, feel free to get in contact with a QxR member.





Sharing Widget


No Comments For This Torrent . Be The First to Comment

You must Login to Comment . Click Here to Login

Menu 1

Some content in menu 1.

Penny Dreadful (2014) Season 2 S02 + Extras (1080p BluRay x265 HEVC 10 (Size: 15.9 GB)
  Penny Dreadful (2014) Season 2 S02 + Extras (1080p BluRay x265 HEVC 10 15.9 GB
tracker name
udp://tracker.leechers-paradise.org:6969/announce
udp://zer0day.ch:1337/announce
udp://open.demonii.com:1337/announce
udp://tracker.coppersurfer.tk:6969/announce
udp://exodus.desync.com:6969/announce
µTorrent compatible trackers list

Relative Torrents

Torrent Name Size Age SEED LEECH
Karenjit Kaur - The Untold Story of Sunn Leone S01 720p WEBRip x264 AAC ESub -
Posted by    xRGDDH   in   TV
2.3 GB 4 seconds 72 683
Qosty Byogaani 2018 HD720p قسطي بيجعني[ETArabia]
Posted by    EtHD   in   Movies
2.1 GB 1 minute 996 642
[SS-Eclipse] Shakugan no Shanatan Frontir (1280x720 h264) [EBAB2391] mkv
Posted by    iDope   in   Video
76.9 MB 3 minutes 962 961
www TamilRockers vc - Hamara Dil Aapke Pas Hai (2000) 720p HDRip - [Tamil + Tel
Posted by    iDope   in   Movies
1.8 GB 3 minutes 650 173
www TamilRockers cl - A Quiet Place (201)[720p - BDRip - Original Audios - [Tam
Posted by    iDope   in   Movies
999.1 MB 3 minutes 272 280