Penny Dreadful (2014) Season 2 S02 + Ext Torrent Free Download

Seeders : 647   &   Leechers : 243      11-07-2018 (5 months)
Penny Dreadful (2014) Season 2 S02 + Ext Torrent Download
Added: ago by QxR ***** in TV   15.9 GB   Hits : 112
Info Hash: 96714EBDF4D64B8C4C8D3EA6AF37C0CA2080B2E2 Download
Penny Dreadful (2014) Season 2 S02 + Ext Torrent Download

Anonymous and Direct Download movies , software , shows...

Fast Safe Anonymous
movies, software, shows...
Penny Dreadful
Drama /Fantasy /Horror  .   60 min   8.2/10
Director : N/A  
Writer: John Logan  
Tags: Penny  Dreadful  (2014)  Season  2  S02  

Released:
28 Apr 2014
Explorer Sir Malcolm Murray, American gunslinger Ethan Chandler, scientist Victor Frankenstein, and medium Vanessa Ives unite to combat supernatural threats in Victorian London.

Torrent Description





Note from Encoder:

Fixed out of order episodes, Episode 1 was swaped with Episode 3, Episode 4 was swapped with Episode 6, Episode 7 was swapped with Episode 9.





Media Information

Code:

General
Format : Matroska
Format version : Version 4 / Version 2
File size : 1.38 GiB
Duration : 55 min 1 s
Overall bit rate : 3 602 kb/s
Movie name : Penny Dreadful Season 2 Disc 1
Encoded date : UTC 2018-07-03 00:31:08
Writing application : mkvmerge v24.0.0 ('Beyond The Pale') 64-bit
Writing library : libebml v1.3.6 + libmatroska v1.4.9

Video
ID : 1
Format : HEVC
Format/Info : High Efficiency Video Coding
Format profile : Main [email protected]@Main
Codec ID : V_MPEGH/ISO/HEVC
Duration : 54 min 59 s
Bit rate : 2 714 kb/s
Width : 1 920 pixels
Height : 1 080 pixels
Display aspect ratio : 16:9
Frame rate mode : Constant
Frame rate : 23.976 (24000/1001) FPS
Color space : YUV
Chroma subsampling : 4:2:0
Bit depth : 10 bits
Bits/(Pixel*Frame) : 0.055
Stream size : 1.04 GiB (75%)
Writing library : x265 2.8+23-656b5b442f0b:[Windows][GCC 8.1.0][64 bit] 10bit
Encoding settings : cpuid=1111039 / frame-threads=3 / numa-pools=12 / wpp / no-pmode / no-pme / no-psnr / no-ssim / log-level=2 / input-csp=1 / input-res=1920x1080 / interlace=0 / total-frames=79111 / level-idc=0 / high-tier=1 / uhd-bd=0 / ref=4 / no-allow-non-conformance / no-repeat-headers / annexb / no-aud / no-hrd / info / hash=0 / no-temporal-layers / open-gop / min-keyint=23 / keyint=250 / gop-lookahead=0 / bframes=8 / b-adapt=2 / b-pyramid / bframe-bias=0 / rc-lookahead=80 / lookahead-slices=4 / scenecut=40 / radl=0 / no-intra-refresh / ctu=64 / min-cu-size=8 / no-rect / no-amp / max-tu-size=32 / tu-inter-depth=1 / tu-intra-depth=1 / limit-tu=0 / rdoq-level=2 / dynamic-rd=0.00 / no-ssim-rd / signhide / no-tskip / nr-intra=0 / nr-inter=0 / no-constrained-intra / strong-intra-smoothing / max-merge=3 / limit-refs=3 / limit-modes / me=3 / subme=5 / merange=57 / temporal-mvp / weightp / weightb / no-analyze-src-pics / deblock=-1:-1 / sao / no-sao-non-deblock / rd=4 / no-early-skip / rskip / no-fast-intra / no-tskip-fast / no-cu-lossless / no-b-intra / no-splitrd-skip / rdpenalty=0 / psy-rd=1.60 / psy-rdoq=1.00 / no-rd-refine / no-lossless / cbqpoffs=0 / crqpoffs=0 / rc=crf / crf=19.0 / qcomp=0.60 / qpstep=4 / stats-write=0 / stats-read=0 / ipratio=1.40 / pbratio=1.30 / aq-mode=3 / aq-strength=1.00 / cutree / zone-count=0 / no-strict-cbr / qg-size=32 / no-rc-grain / qpmax=69 / qpmin=0 / no-const-vbv / sar=0 / overscan=0 / videoformat=5 / range=0 / colorprim=2 / transfer=2 / colormatrix=2 / chromaloc=0 / display-window=0 / max-cll=0,0 / min-luma=0 / max-luma=1023 / log2-max-poc-lsb=8 / vui-timing-info / vui-hrd-info / slices=1 / no-opt-qp-pps / no-opt-ref-list-length-pps / no-multi-pass-opt-rps / scenecut-bias=0.00 / no-opt-cu-delta-qp / aq-motion / no-hdr / no-hdr-opt / no-dhdr10-opt / no-idr-recovery-sei / analysis-reuse-level=5 / scale-factor=0 / refine-intra=0 / refine-inter=0 / refine-mv=0 / no-limit-sao / ctu-info=0 / no-lowpass-dct / refine-mv-type=0 / copy-pic=1 / max-ausize-factor=1.0 / no-dynamic-refine / no-single-sei
Default : Yes
Forced : No

Audio #1
ID : 2
Format : AAC
Format/Info : Advanced Audio Codec
Format profile : LC
Codec ID : A_AAC
Duration : 54 min 59 s
Bit rate : 444 kb/s
Channel(s) : 6 channels
Channel positions : Front: L C R, Side: L R, LFE
Sampling rate : 48.0 kHz
Frame rate : 46.875 FPS (1024 spf)
Compression mode : Lossy
Delay relative to video : 20 ms
Stream size : 175 MiB (12%)
Language : English
Default : No
Forced : No

Audio #2
ID : 3
Format : AAC
Format/Info : Advanced Audio Codec
Format profile : HE-AAC / LC
Codec ID : A_AAC
Duration : 55 min 1 s
Bit rate : 192 kb/s
Channel(s) : 6 channels
Channel positions : Front: L C R, Side: L R, LFE
Sampling rate : 48.0 kHz / 24.0 kHz
Frame rate : 23.438 FPS (1024 spf)
Compression mode : Lossy
Delay relative to video : 40 ms
Stream size : 75.6 MiB (5%)
Language : French
Default : No
Forced : No

Audio #3
ID : 4
Format : AAC
Format/Info : Advanced Audio Codec
Format profile : HE-AAC / LC
Codec ID : A_AAC
Duration : 54 min 59 s
Bit rate : 192 kb/s
Channel(s) : 6 channels
Channel positions : Front: L C R, Side: L R, LFE
Sampling rate : 48.0 kHz / 24.0 kHz
Frame rate : 23.438 FPS (1024 spf)
Compression mode : Lossy
Delay relative to video : 40 ms
Stream size : 75.5 MiB (5%)
Language : German
Default : No
Forced : No

Subtitle #1
ID : 5
Format : PGS
Muxing mode : zlib
Codec ID : S_HDMV/PGS
Codec ID/Info : Picture based subtitle format used on BDs/HD-DVDs
Duration : 52 min 37 s
Bit rate : 25.2 kb/s
Count of elements : 976
Stream size : 9.50 MiB (1%)
Language : English
Default : No
Forced : No

Subtitle #2
ID : 6
Format : PGS
Muxing mode : zlib
Codec ID : S_HDMV/PGS
Codec ID/Info : Picture based subtitle format used on BDs/HD-DVDs
Duration : 52 min 37 s
Bit rate : 25.9 kb/s
Count of elements : 976
Stream size : 9.76 MiB (1%)
Language : Danish
Default : No
Forced : No

Subtitle #3
ID : 7
Format : PGS
Muxing mode : zlib
Codec ID : S_HDMV/PGS
Codec ID/Info : Picture based subtitle format used on BDs/HD-DVDs
Duration : 52 min 37 s
Bit rate : 29.0 kb/s
Count of elements : 970
Stream size : 10.9 MiB (1%)
Language : Dutch
Default : No
Forced : No

Subtitle #4
ID : 8
Format : PGS
Muxing mode : zlib
Codec ID : S_HDMV/PGS
Codec ID/Info : Picture based subtitle format used on BDs/HD-DVDs
Duration : 52 min 37 s
Bit rate : 30.0 kb/s
Count of elements : 976
Stream size : 11.3 MiB (1%)
Language : French
Default : No
Forced : No

Subtitle #5
ID : 9
Format : PGS
Muxing mode : zlib
Codec ID : S_HDMV/PGS
Codec ID/Info : Picture based subtitle format used on BDs/HD-DVDs
Duration : 52 min 37 s
Bit rate : 25.7 kb/s
Count of elements : 978
Stream size : 9.67 MiB (1%)
Language : Finnish
Default : No
Forced : No

Subtitle #6
ID : 10
Format : PGS
Muxing mode : zlib
Codec ID : S_HDMV/PGS
Codec ID/Info : Picture based subtitle format used on BDs/HD-DVDs
Duration : 52 min 37 s
Bit rate : 31.8 kb/s
Count of elements : 976
Stream size : 12.0 MiB (1%)
Language : German
Default : No
Forced : No

Subtitle #7
ID : 11
Format : PGS
Muxing mode : zlib
Codec ID : S_HDMV/PGS
Codec ID/Info : Picture based subtitle format used on BDs/HD-DVDs
Duration : 52 min 37 s
Bit rate : 24.5 kb/s
Count of elements : 862
Stream size : 9.21 MiB (1%)
Language : Norwegian Bokmal
Default : No
Forced : No

Subtitle #8
ID : 12
Format : PGS
Muxing mode : zlib
Codec ID : S_HDMV/PGS
Codec ID/Info : Picture based subtitle format used on BDs/HD-DVDs
Duration : 52 min 33 s
Bit rate : 25.0 kb/s
Count of elements : 964
Stream size : 9.38 MiB (1%)
Language : Swedish
Default : No
Forced : No

Menu
00:00:00.000 : en:Chapter 01
00:05:48.306 : en:Chapter 02
00:15:37.478 : en:Chapter 03
00:28:14.776 : en:Chapter 04
00:39:22.693 : en:Chapter 05
00:53:58.485 : en:Chapter 06

Source Information

Code:

Release:
Untouched Bluray


Note From QxR:

Quote:

Whilst we are happy for our releases to be re-posted on a platform we aren't on, please do so in an 'as-is' format. We ask that you do not create a new torrent, include all descriptions you see above including the QxR logo, tags, notes and screenshots. If you'd like to become a permanent poster on a website we don't post to, feel free to get in contact with a QxR member.





Sharing Widget


No Comments For This Torrent . Be The First to Comment

You must Login to Comment . Click Here to Login

Menu 1

Some content in menu 1.

Penny Dreadful (2014) Season 2 S02 + Extras (1080p BluRay x265 HEVC 10 (Size: 15.9 GB)
  Penny Dreadful (2014) Season 2 S02 + Extras (1080p BluRay x265 HEVC 10 15.9 GB
tracker name
udp://tracker.leechers-paradise.org:6969/announce
udp://zer0day.ch:1337/announce
udp://open.demonii.com:1337/announce
udp://tracker.coppersurfer.tk:6969/announce
udp://exodus.desync.com:6969/announce
µTorrent compatible trackers list

Relative Torrents

Torrent Name Size Age SEED LEECH
Supreme Khiladi 2 (2018) Hindi - 720p - DRip - x264 - 1 3GB - ESub - MovCr
Posted by    MovCr   in   Movies
1.3 GB 4 minutes 890 254
Supreme Khiladi 2 (Tej I Love You) (2018 Hindi - 720p - HDTV - x264
Posted by    desipirates   in   Movies
842.8 MB 7 minutes 128 853
Supreme Khiladi 2 (2018) Hindi - HDRip -x264 - 700MB - MP3 - ESub - MovCr
Posted by    MovCr   in   Movies
689.8 MB 7 minutes 404 249
NCIS Los Angeles S10E11 720p HDTV x265-MNX[TGx]
Posted by    mazemaze16   in   TV
234.6 MB 9 minutes 518 280
Jeopardy 2018 12 17 720p HDTV x264 [eztv
Posted by    EZTVag   in   TV
385.2 MB 9 minutes 435 785