Raman Raghav 2 0 (2016) REM + Extras (10 Torrent Free Download

Seeders : 577   &   Leechers : 255      11-07-2018 (2 months)
Raman Raghav 2 0 (2016) REM + Extras (10 Torrent Download
Added: ago by QxR ***** in Movies   2.1 GB   Hits : 27
Info Hash: 1333D394414622A2C287D1F9AA1E4C9B2C8F29A2 Download
Raman Raghav 2 0 (2016) REM + Extras (10 Torrent Download

Anonymous and Direct Download movies , software , shows...

Fast Safe Anonymous
movies, software, shows...
Raman Raghav 2.0
Crime /Drama /Thriller  .   133 min   7.3/10
Director : Anurag Kashyap  
Writer: Vasan Bala  Anurag Kashyap  
Tags: Raman  Raghav  2  0  (2016)  REM  

Released:
24 Jun 2016
Set in present day Mumbai the story follows the life of a serial killer Ramanna who is inspired by an infamous serial killer from the 1960s Raman Raghav. His strange obsession with Raghavan, a young Cop keeps growing as he closely follows him without his knowledge .... See More and often creates situations where both of them come face to face.

Torrent Description







Media Information

Code:

General
Format : Matroska
Format version : Version 4 / Version 2
File size : 1.89 GiB
Duration : 2 h 7 min
Overall bit rate : 2 128 kb/s
Encoded date : UTC 2018-07-08 14:10:13
Writing application : mkvmerge v24.0.0 ('Beyond The Pale') 64-bit
Writing library : libebml v1.3.6 + libmatroska v1.4.9
Writing frontend : Natty

Video
ID : 1
Format : HEVC
Format/Info : High Efficiency Video Coding
Format profile : Main [email protected]@Main
Codec ID : V_MPEGH/ISO/HEVC
Duration : 2 h 7 min
Bit rate : 1 585 kb/s
Width : 1 920 pixels
Height : 804 pixels
Display aspect ratio : 2.40:1
Frame rate mode : Constant
Frame rate : 24.000 FPS
Color space : YUV
Chroma subsampling : 4:2:0
Bit depth : 10 bits
Bits/(Pixel*Frame) : 0.043
Stream size : 1.41 GiB (74%)
Writing library : x265 2.8+26-d65e3a557a20:[Windows][MSVC 1914][64 bit] 10bit
Encoding settings : cpuid=1111039 / frame-threads=2 / numa-pools=4 / wpp / no-pmode / no-pme / no-psnr / no-ssim / log-level=2 / input-csp=1 / input-res=1920x804 / interlace=0 / total-frames=183332 / level-idc=0 / high-tier=1 / uhd-bd=0 / ref=5 / no-allow-non-conformance / no-repeat-headers / annexb / no-aud / no-hrd / info / hash=0 / no-temporal-layers / open-gop / min-keyint=24 / keyint=400 / gop-lookahead=0 / bframes=8 / b-adapt=2 / b-pyramid / bframe-bias=0 / rc-lookahead=100 / lookahead-slices=4 / scenecut=40 / radl=0 / no-intra-refresh / ctu=32 / min-cu-size=8 / no-rect / no-amp / max-tu-size=16 / tu-inter-depth=1 / tu-intra-depth=1 / limit-tu=0 / rdoq-level=2 / dynamic-rd=0.00 / no-ssim-rd / signhide / no-tskip / nr-intra=0 / nr-inter=0 / no-constrained-intra / no-strong-intra-smoothing / max-merge=2 / limit-refs=3 / limit-modes / me=3 / subme=5 / merange=57 / temporal-mvp / weightp / weightb / no-analyze-src-pics / deblock=-2:0 / no-sao / no-sao-non-deblock / rd=4 / no-early-skip / rskip / no-fast-intra / no-tskip-fast / no-cu-lossless / no-b-intra / no-splitrd-skip / rdpenalty=0 / psy-rd=2.00 / psy-rdoq=1.00 / no-rd-refine / no-lossless / cbqpoffs=0 / crqpoffs=0 / rc=crf / crf=24.0 / qcomp=0.60 / qpstep=4 / stats-write=0 / stats-read=0 / ipratio=1.40 / pbratio=1.30 / aq-mode=3 / aq-strength=1.00 / cutree / zone-count=0 / no-strict-cbr / qg-size=32 / no-rc-grain / qpmax=69 / qpmin=0 / no-const-vbv / sar=0 / overscan=0 / videoformat=5 / range=0 / colorprim=1 / transfer=1 / colormatrix=1 / chromaloc=0 / display-window=0 / max-cll=0,0 / min-luma=0 / max-luma=1023 / log2-max-poc-lsb=8 / vui-timing-info / vui-hrd-info / slices=1 / no-opt-qp-pps / no-opt-ref-list-length-pps / no-multi-pass-opt-rps / scenecut-bias=0.05 / no-opt-cu-delta-qp / aq-motion / no-hdr / no-hdr-opt / no-dhdr10-opt / no-idr-recovery-sei / analysis-reuse-level=8 / scale-factor=0 / refine-intra=0 / refine-inter=0 / refine-mv=0 / no-limit-sao / ctu-info=0 / no-lowpass-dct / refine-mv-type=0 / copy-pic=1 / max-ausize-factor=1.0 / no-dynamic-refine / no-single-sei
Default : Yes
Forced : No
Color range : Limited
Color primaries : BT.709
Transfer characteristics : BT.709
Matrix coefficients : BT.709

Audio #1
ID : 2
Format : AAC
Format/Info : Advanced Audio Codec
Format profile : LC
Codec ID : A_AAC
Duration : 2 h 7 min
Bit rate : 406 kb/s
Channel(s) : 6 channels
Channel positions : Front: L C R, Side: L R, LFE
Sampling rate : 48.0 kHz
Frame rate : 46.875 FPS (1024 spf)
Compression mode : Lossy
Delay relative to video : 20 ms
Stream size : 369 MiB (19%)
Language : Hindi
Default : Yes
Forced : No

Audio #2
ID : 3
Format : AAC
Format/Info : Advanced Audio Codec
Format profile : HE-AAC / LC
Codec ID : A_AAC
Duration : 2 h 7 min
Bit rate : 132 kb/s
Channel(s) : 6 channels
Channel positions : Front: L C R, Side: L R, LFE
Sampling rate : 48.0 kHz / 24.0 kHz
Frame rate : 23.438 FPS (1024 spf)
Compression mode : Lossy
Delay relative to video : 40 ms
Stream size : 122 MiB (6%)
Language : German
Default : No
Forced : No

Menu
00:00:00.000 : en:Chapter 01
00:02:42.375 : en:Chapter 02
00:09:55.125 : en:Chapter 03
00:15:23.791 : en:Chapter 04
00:18:06.375 : en:Chapter 05
00:25:04.500 : en:Chapter 06
00:37:45.416 : en:Chapter 07
00:41:55.333 : en:Chapter 08
00:50:59.250 : en:Chapter 09
00:55:50.000 : en:Chapter 10
00:59:14.125 : en:Chapter 11
01:02:42.750 : en:Chapter 12
01:08:22.250 : en:Chapter 13
01:14:09.333 : en:Chapter 14
01:19:35.083 : en:Chapter 15
01:22:31.500 : en:Chapter 16
01:30:53.916 : en:Chapter 17
01:48:09.375 : en:Chapter 18
02:00:27.208 : en:Chapter 19
02:02:57.750 : en:Chapter 20

Source Information

Code:

Release:
Psycho.Raman.•.2016.•.BD25.•.Untouched.BluRay.•.Rapid.Eye.Movies.•.DRs | 22 GB | Hon3yHD


Note From QxR:

Quote:

Whilst we are happy for our releases to be re-posted on a platform we aren't on, please do so in an 'as-is' format. We ask that you do not create a new torrent, include all descriptions you see above including the QxR logo, tags, notes and screenshots. If you'd like to become a permanent poster on a website we don't post to, feel free to get in contact with a QxR member.





Sharing Widget


No Comments For This Torrent . Be The First to Comment

You must Login to Comment . Click Here to Login

Menu 1

Some content in menu 1.

Raman Raghav 2 0 (2016) REM + Extras (1080p BluRay x265 HEVC 10bit AAC (Size: 2.1 GB)
  Raman Raghav 2 0 (2016) REM + Extras (1080p BluRay x265 HEVC 10bit AAC 2.1 GB
tracker name
udp://tracker.leechers-paradise.org:6969/announce
udp://zer0day.ch:1337/announce
udp://open.demonii.com:1337/announce
udp://tracker.coppersurfer.tk:6969/announce
udp://exodus.desync.com:6969/announce
µTorrent compatible trackers list

Relative Torrents

Torrent Name Size Age SEED LEECH
18+ Outlawed 2018 UNCENSORED Movies 720pHDRip x264 5 1 with Sample ☻rDX☻
Posted by    nehalpuja   in   Movies
1,019.9 MB 1 minute 994 960
Master and Commander (2003) BluRay - 720 - x264 - [Telugu + Eng] - 950MB - ESub
Posted by    anily   in   Movies
993.1 MB 1 minute 191 220
Dancing With The Stars US S27E01 720p WE x264-TBS[TGx]
Posted by    mazemaze16   in   TV
2.1 GB 1 minute 73 652
Better Call Saul S04E08 Coushatta 720p 1bit WEBRip 2CH x265 HEVC-PSA
Posted by    shadow1941   in   TV
252.9 MB 1 minute 434 672
Dancing With The Stars US S27E01 480p x24-mSD[TGx]
Posted by    mazemaze16   in   TV
784.7 MB 1 minute 791 293