The Equalizer (2014) x 1600 (2160p) HDR Torrent Free Download

Seeders : 173   &   Leechers : 896      12-07-2018 (1 week)
The Equalizer (2014) x 1600 (2160p) HDR Torrent Download
Added: ago by PhunPsyz ***** in Movies   3.0 GB   Hits : 21
Info Hash: 61BCCE917367B90CC46E27B29BDA3DD66EF72494 Download
The Equalizer (2014) x 1600 (2160p) HDR Torrent Download

Anonymous and Direct Download movies , software , shows...

Fast Safe Anonymous
movies, software, shows...
The Equalizer
Action /Crime /Thriller  .   132 min   7.2/10
Director : Antoine Fuqua  
Tags: The  Equalizer  (2014)  x  1600  (2160p)  

Released:
26 Sep 2014
In The Equalizer, Denzel Washington plays McCall, a man who believes he has put his mysterious past behind him and dedicated himself to beginning a new, quiet life. But when McCall meets Teri (Chloë Grace Moretz), a young girl under the control of ultra-violent Ru.... See More ssian gangsters, he can't stand idly by - he has to help her. Armed with hidden skills that allow him to serve vengeance against anyone who would brutalize the helpless, McCall comes out of his self-imposed retirement and finds his desire for justice reawakened. If someone has a problem, if the odds are stacked against them, if they have nowhere else to turn, McCall will help. He is The Equalizer.

Torrent Description



www.imdb.com/title/tt0455944/

A man believes he has put his mysterious past behind him and has dedicated himself to beginning a new, quiet life. But when he meets a young girl under the control of ultra-violent Russian gangsters, he can't stand idly by - he has to help her.

Source: WhiteRhino (HDR) (22.4 GiB)



Format : Matroska
Format version : Version 4 / Version 2
File size : 3.00 GiB
Duration : 2 h 12 min
Overall bit rate : 3 249 kb/s

Video
ID : 1
Format : HEVC
Format/Info : High Efficiency Video Coding
Format profile : Main [email protected]@High
Codec ID : V_MPEGH/ISO/HEVC
Duration : 2 h 12 min
Bit rate : 2 865 kb/s
Width : 3 840 pixels
Height : 1 600 pixels
Display aspect ratio : 2.40:1
Frame rate mode : Constant
Frame rate : 23.976 (24000/1001) FPS
Color space : YUV
Chroma subsampling : 4:2:0
Bit depth : 10 bits
Bits/(Pixel*Frame) : 0.019
Stream size : 2.64 GiB (88%)
Writing library : x265 2.6:[Windows][GCC 7.1.0][64 bit] 10bit

Audio
ID : 2
Format : AC-3
Format/Info : Audio Coding 3
Format settings, Endianness : Big
Codec ID : A_AC3
Duration : 2 h 12 min
Bit rate mode : Constant
Bit rate : 320 kb/s
Channel(s) : 6 channels
Channel positions : Front: L C R, Side: L R, LFE
Sampling rate : 48.0 kHz
Frame rate : 31.250 FPS (1536 SPF)
Bit depth : 16 bits
Compression mode : Lossy
Stream size : 302 MiB (10%)
Title : Surround
Language : English

Text
Language : English
Language : English
Language : English
Language : Arabic
Language : Chinese
Language : Chinese
Language : Czech
Language : Danish
Language : Dutch
Language : Finnish
Language : Estonian
Language : French
Language : German
Language : Greek
Language : Italian
Language : Japanese
Language : Korean
Language : Norwegian
Language : Polish
Language : Portuguese
Language : Portuguese
Language : Romanian
Language : Russian
Language : Slovak
Language : Spanish
Language : Spanish
Language : Swedish
Language : Thai
Language : Turkish
Language : French
Language : Japanese
Default : No
Forced : No




Sharing Widget


No Comments For This Torrent . Be The First to Comment

You must Login to Comment . Click Here to Login

Menu 1

Some content in menu 1.

The Equalizer (2014) x 1600 (2160p) HDR 5 1 x265 10bit Phun Psyz (Size: 3.0 GB)
  The Equalizer (2014) x 1600 (2160p) HDR 5 1 x265 10bit Phun Psyz 3.0 GB
tracker name
udp://tracker.leechers-paradise.org:6969/announce
udp://zer0day.ch:1337/announce
udp://open.demonii.com:1337/announce
udp://tracker.coppersurfer.tk:6969/announce
udp://exodus.desync.com:6969/announce
µTorrent compatible trackers list

Relative Torrents

Torrent Name Size Age SEED LEECH
Watch What Happens Live 2018 07 19 Charlmagne Tha God and Joel McHale WEB x264-
Posted by    ETTV   in   TV
304.3 MB 1 minute 577 796
Hereditary (2018) 720p HDCAM 750MB Ganoo mkv
Posted by    iDope   in   Video
750.6 MB 2 minutes 274 262
Preacher S02E08 SWESUB 720p WEB-DL x264 p4
Posted by    iDope   in   TV
200.2 MB 2 minutes 740 462
The Recruit 2003 BRRip XviD MP3-XVID
Posted by    iDope   in   Movies
1.2 GB 2 minutes 894 438
Windows 8 1 Pro Vl Update 3 x87 En-Us ES July2018
Posted by    iDope   in   Apps
15.9 MB 2 minutes 328 804